Law.and.Order.L.A.S01.E03.PsP...vice

Updated: 3 days
Warning! Use a VPN When Downloading Torrents!
Your IP Address is 3.239.109.55. Country is United States
Your Internet Provider can see Your Online Activity! Hide your IP ADDRESS with a VPN!

N.B. MagnetDL is ADS Free when you're Connected to Trust.Zone VPN
We strongly recommend using Trust.Zone VPN to anonymize your torrenting. It's FREE!
HIDE ME Now!
Law.and.Order.L.A.S01.E03.PsP...vice
Download was added 3 months ago in the video download category.

Download:
Magnet Link Law.and.Order.L.A.S01.E03.PsP...vice
Category:
show
Total Files:
4
Total Size:
179 MB
Tracker
Update
Uploaded:
3 months
Uploader:
vicerock
Seeders:
0
Leechers:
1
Info Hash:
f5bc9d3673b08f14bf2c970b2494e61c492659cb
File List Information
Sample/sample.mp4 (4.12 MB)
law&order.la.h264.vice.mp4 (175 MB)
Torrent downloaded from AhaShare.com.txt (59 B)
Torrent downloaded from Demonoid.com.txt (47 B)
Description


Format : MPEG-4
Format profile : Base Media / Version 2
Codec ID : mp42
File size : 164 MiB
Overall bit rate : 578 Kbps
Encoded date : UTC 2010-10-07 15:41:28
Tagged date : UTC 2010-10-07 15:41:39
Writing application : mp4creator 1.6.1d

Video
ID : 1
Format : AVC
Format/Info : Advanced Video Codec
Format profile : [email protected]
Format settings, CABAC : No
Format settings, ReFrames : 1 frame
Codec ID : avc1
Codec ID/Info : Advanced Video Coding
Bit rate mode : Variable
Bit rate : 514 Kbps
Width : 480 pixels
Height : 272 pixels
Display aspect ratio : 16:9
Original display aspect ratio : 16:9
Frame rate mode : Constant
Frame rate : 24.000 fps
Resolution : 24 bits
Colorimetry : 4:2:0
Scan type : Progressive
Bits/(Pixel*Frame) : 0.164
Stream size : 146 MiB (89%)
Encoded date : UTC 2010-10-07 15:41:28
Tagged date : UTC 2010-10-07 15:41:38

Audio
ID : 2
Format : AAC
Format/Info : Advanced Audio Codec
Format version : Version 4
Format profile : LC
Format settings, SBR : Yes
Format settings, PS : No
Codec ID : 40
Duration : 39mn 45s
Bit rate mode : Variable
Bit rate : 62.7 Kbps
Maximum bit rate : 140 Kbps
Channel(s) : 2 channels
Channel positions : L R
Sampling rate : 48.0 KHz
Resolution : 16 bits
Stream size : 17.8 MiB (11%)
Encoded date : UTC 2010-10-07 15:41:39
Tagged date : UTC 2010-10-07 15:41:39

Law & Order: Los Angeles is an American police procedural-legal television drama series set in Los Angeles, where it is produced. Created and produced by Dick Wolf and developed by Blake Masters, it premiered on NBC on September 29, 2010, as a spin-off of Wolf's successful crime drama Law & Order.

Thanks to LOL for the original files

http://www.imdb.com/title/tt1657081/



Related Downloads
DLDownload NameAgeTypeFilesSizeSELE
Magnet Link silent-this-ancient-law3 days video1031.4 GB00
Magnet Link Beyond The Law (2020) [BluRay Rip][AC3 5.1 Castellano][www.PctMix.com]6 days video41.17 GB230
Magnet Link Law.and.Order.SVU.S22.400p.Ultradox1 week video52.79 GB00
Magnet Link Law.and.Order.SVU.S22E02.720p.HDTV.x264-SYNCOPY[rarbg]1 month video5960 MB00
Magnet Link Common.Law.2012.S01E09.720p.HDTV.x264-COMPULSiON [PublicHD]1 month video2986 MB00
Magnet Link Law.and.Order.SVU.S22E03.1080p.WEB.H264-STRONTiUM[rarbg]1 month video52.93 GB10
Magnet Link Lone.Star.Law.S08E12.Suspicious.Encounters.720p.WEBRip.x264-KOMPOST[rarbg]1 month video4956 MB00
Magnet Link Law.and.Order.SVU.S22E01.HDTV.x264-PHOENiX[TGx]1 month video2291 MB362
Magnet Link Emma Leigh Lubricating The Law1 month video1165 MB00
Magnet Link GirlsWay.20.09.27.Alison.Rey.Rebecca.Vanguard.Suspicious.Sister-In-Law.480p.MP4-XXX2 months video1293 MB10
Magnet Link Law.and.Order.SVU.S22E02.720p.WEB.H264-STRONTiUM[rarbg]2 months video51.61 GB00
Magnet Link Law & Order (1990) Season 12 S12 (1080p AMZN WEB-DL x265 HEVC 10bit EAC3 2.0 ImE)2 months video2429.5 GB00
Magnet Link Law.and.Order.SVU.S22E01.720p.HDTV.x264-SYNCOPY[rarbg]2 months video4890 MB10
Magnet Link Zarras.Law.2014.WEB-DL.x264-RARBG2 months video5681 MB00
Magnet Link Law.and.Order.SVU.S22E01.WEBRip.x264-ION102 months video4396 MB01
Magnet Link Law & Order (1990) Season 7 S07 (1080p AMZN WEB-DL x265 HEVC 10bit EAC3 2.0 ImE)2 months video2329.6 GB20
Magnet Link 媳妇的欲求不满 Daughter in law 2020.Korean.HD720P.x264.AC3.中文字幕.CHS.taobaobt2 months video32.57 GB00
Magnet Link Law & Order (1990) Season 6 S06 (1080p AMZN WEB-DL x265 HEVC 10bit EAC3 2.0 ImE)2 months video2329.9 GB20
Magnet Link [ClubSandy 21Sextury] Lyra Law (Slamming My Step-Sister 2016-12-18)2 months video1290 MB00
Magnet Link [Kazuhiro] Uragiri no Mesubuta Choukyou -Akogareno Gishi- A Traitor's Sow Training -The Yearned For Sister-In-Law- [English] {Doujins com}2 months misc2217.9 MB00
Magnet Link North.Woods.Law.S13E10.Good.News.Bad.News.HDTV.x264-W4F[rarbg]2 months video4499 MB00
Magnet Link North.Woods.Law.S14E06.Leading.the.Way.WEB.h264-LiGATE[TGx]2 months video3339 MB03
Magnet Link www.Torrenting.com - Shoplifters At War With The Law S01E03 XviD-AFG2 months video6629 MB02
Magnet Link Abortion, Eugenics, the Satanic (not-) New World Order, and Natural Law Anarchy3 months video75.51 GB10
Magnet Link Law.and.Order.Criminal.Intent.S09E01.720p.HDTV.x264-IMMERSE - [ www.torrentday.com ]3 months misc281.09 GB00
About Magnet Links
Magnet links are easy to use if you have a good BitTorrent client. We recommend using uTorrent because it has full support for these links. Just click on the magnet link of your choice, and your browser should automatically open up your default torrent client and start downloading. It's that easy. For more information and help downloading please view our Help Downloading page.
Share Download
Direct Link

HTML Link

Forum Link
Download Searches