Tenet.2020.HC.HDTC.XviD.B4ND1T69

Updated: 3 days
Warning! Use a VPN When Downloading Torrents!
Your IP Address is 35.153.39.7. Country is United States
Your Internet Provider can see Your Online Activity! Hide your IP ADDRESS with a VPN!

N.B. MagnetDL is ADS Free when you're Connected to Trust.Zone VPN
We strongly recommend using Trust.Zone VPN to anonymize your torrenting. It's FREE!
HIDE ME Now!
Tenet.2020.HC.HDTC.XviD.B4ND1T69
Download was added 1 month ago in the video download category.

Download:
Magnet Link Tenet.2020.HC.HDTC.XviD.B4ND1T69
Category:
movie
Total Files:
8
Total Size:
1.88 GB
Tracker
Update
Uploaded:
1 month
Uploader:
B4ND1T69
Seeders:
0
Leechers:
0
Info Hash:
7a8c87e03a5ef58f487d532be132c7d201243efa
File List Information
Downloaded from ProStyleX.txt (54 B)
Downloaded from ETTV.txt (55 B)
Downloaded from 1337x.txt (61 B)
Downloaded from newkatcr.co.txt (139 B)
Sample-3.avi (21.1 MB)
Sample-2.avi (24.4 MB)
Sample-1.avi (31.5 MB)
Tenet.2020.HC.HDTC.XviD.B4ND1T69.avi (1.81 GB)
Description

Tenet.2020.HC.HDTC.XviD.B4ND1T69



Director: Christopher Nolan
Writer: Christopher Nolan
Stars: John David Washington, Robert Pattinson, Elizabeth Debicki

Plot/Story:
Armed with only one word, Tenet, and fighting for the survival of the entire world, a Protagonist journeys through a twilight world of international espionage on a mission that will unfold in something beyond real time.

Notes:
Clean Print, NO Ads, Logo's, site addy's or floaty shit...just the movie.
Ran some filters to clean up the image, reduced the flicker, re-balanced the colors, brightness, contrast, gamma and sharpened the image...Samples included, Enjoy :@)

General
Complete name : Tenet.2020.HC.HDTC.XviD.B4ND1T69.avi
Format : AVI
Format/Info : Audio Video Interleave
File size : 1.81 GiB
Duration : 2 h 30 min
Overall bit rate : 1 724 kb/s
Samples : Yes...Included(3)
Subtitles : Hardcoded Chinese throughout + Hardcoded English for non-English parts.

Video
ID : 0
Format : MPEG-4 Visual
Format profile : Advanced [email protected]
Format settings, BVOP : 2
Format settings, QPel : No
Format settings, GMC : No warppoints
Format settings, Matrix : Default (H.263)
Codec ID : XVID
Codec ID/Hint : XviD
Duration : 2 h 30 min
Bit rate : 1 582 kb/s
Width : 720 pixels
Height : 336 pixels
Display aspect ratio : 2.143
Frame rate : 30.303 FPS
Color space : YUV
Chroma subsampling : 4:2:0
Bit depth : 8 bits
Scan type : Progressive
Compression mode : Lossy
Bits/(Pixel*Frame) : 0.216
Stream size : 1.66 GiB (92%)
Writing library : XviD 64

Audio
ID : 1
Format : MPEG Audio
Format version : Version 1
Format profile : Layer 3
Codec ID : 55
Codec ID/Hint : MP3
Duration : 2 h 30 min
Bit rate mode : Constant
Bit rate : 128 kb/s
Channel(s) : 2 channels
Sampling rate : 48.0 kHz
Compression mode : Lossy
Stream size : 137 MiB (7%)
Alignment : Aligned on interleaves
Interleave, duration : 24 ms (0.73 video frame)

Screenshots:












Please Seed For As Long As Possible
Or At Least 1:1 Ratio...Thanks
Enjoy Peeps

Armed with only one word, Tenet, and fighting for the survival of the entire world, a Protagonist journeys through a twilight world of international espionage on a mission that will unfold in something beyond real time.
In a twilight world of international espionage, an unnamed CIA operative, known as The Protagonist, is recruited by a mysterious organization called Tenet to participate in a global assignment that unfolds beyond real time. The mission: prevent Andrei Sator, a renegade Russian oligarch with precognition abilities, from starting World War III. The Protagonist will soon master the art of "time inversion" as a way of countering the threat that is to come. Written by jesusblack-91294

Tenet.2020.HC.HDTC.XviD.B4ND1T69
GENRE:Action / Sci-Fi
RUNTIME:150 min
CAST:Juhan Ulfsak / Jefferson Hall / Ivo Uukkivi / Andrew Howard / John David Washington…
DIRECTOR:Christopher Nolan
WRITER:Christopher Nolan
RELEASE DATE:26 Aug 2020 (Germany)
IMDB:IMDB link
COMPANY:
LANGUAGE:United Kingdom / United States
Related Downloads
DLDownload NameAgeTypeFilesSizeSELE
Magnet Link Tenet 2020.720p IT ENG FR WEBRip23 hours video21.28 GB31
Magnet Link Tenet 2020.1080p BluRay x264 DTS-FGT1 day video21.28 GB60
Magnet Link Tenet.2020.1080p.BluRay.X264-AMIABLE1 day video2789 MB00
Magnet Link Tenet.2020.[WEBRip] [1080p] [YTS.LT]3 days video2744 MB42
Magnet Link Tenet 2020 H264 AC3 Mr KeFF4 days video2744 MB00
Magnet Link Tenet (2020) [1080p] [WEBRip]5 days video2744 MB180
Magnet Link Tenet 2020 H264 BluRay HD-AFG1 week video2744 MB10
Magnet Link Tenet 2020 1080p WEBRip x264-iNSPiRiT1 week video2703 MB20
Magnet Link Tenet 2020 720p BrRip x264 WOW1 week video2555 MB10
Magnet Link Tenet 2020 [720p] [WEBRip] [DTS HD]2 weeks video2744 MB00
Magnet Link Tenet 2020 BrRip x264 HDMI-AMG2 weeks video2555 MB10
Magnet Link Tenet.2020.BluRay 743MB x264-GalaxyRG2 weeks video2744 MB41
Magnet Link TENET.2020.1080P.CHINESESUB.HDTS.X264.AAC-BabyTorrent2 weeks video34.19 GB11813
Magnet Link Tenet [2020] 720p HDrip X264 Solar2 weeks video2703 MB10
Magnet Link Tenet.2020.1080p.CAM.H264.AC3.RoSub-F12 weeks video62.62 GB00
Magnet Link Tenet.2020.1080p.BluRay.H264.AC3.DD2.0.Will18692 weeks video2778 MB30
Magnet Link Tenet [2020] 1080p HDrip H264 AAC Omikron2 weeks video2703 MB11
Magnet Link Tenet.2020.BluRay 743MB x264-GalaxyRG2 weeks video2744 MB10
Magnet Link Tenet.(2020).1-3.HDCAM.Rip.x264.AC3.KorSub.DUS-IcTv2 weeks video51.47 GB42
Magnet Link Tenet.2020.iTALiAN.LD.TS.R6.XviD-RESiSTANCE4 weeks video11.77 GB101
Magnet Link Tenet 2020 H264 BluRay HD-AFG4 weeks video2744 MB00
Magnet Link Tenet.2020.1080p.BluRay.X264-AMIABLE4 weeks video2789 MB11
Magnet Link Tenet.2020.1080p.BluRay.X264-AMIABLE4 weeks video2789 MB190
Magnet Link Tenet 2020 H264 BluRay HD-AFG4 weeks video2744 MB00
Magnet Link Tenet 2020 1080p.WEBRip.X264.DD.5.1-EVO[EtHD]4 weeks video2744 MB50
About Magnet Links
Magnet links are easy to use if you have a good BitTorrent client. We recommend using uTorrent because it has full support for these links. Just click on the magnet link of your choice, and your browser should automatically open up your default torrent client and start downloading. It's that easy. For more information and help downloading please view our Help Downloading page.
Share Download
Direct Link

HTML Link

Forum Link
Download Searches