Halloween - The Complete Collection (1978-2018) ~ TombDoc

Updated: 3 weeks
Warning! Use a VPN When Downloading Torrents!
Your IP Address is . Location
Your Internet Provider can see when you download torrents! Hide your IP Address with a VPN
Trust.Zone warns: You must use Trust.Zone VPN to hide your torrenting. It's FREE HIDE ME NOW
Halloween - The Complete Collection (1978-2018) ~ TombDoc
Download was added 1 month ago in the video download category.

Download:
Magnet Link Halloween - The Complete Collection (1978-2018) ~ TombDoc
Category:
movie
Total Files:
13
Total Size:
35.3 GB
Tracker
Update
Uploaded:
1 month
Uploader:
McuDudeS
Seeders:
6
Leechers:
3
Info Hash:
4e2e9e5a09f8528a941e219ce8c09e7d6c9cbb91
File List Information
15.D-L.D.E.jpg (105 KB)
H-T.C.C.jpg (1.05 MB)
Halloween (2018) English 1080p 10bit Bluray x265 HEVC DDP 5.1 MSubs ~ TombDoc.mkv (3.45 GB)
Halloween - Resurrection (2002) English 1080p 10bit Bluray x265 HEVC DDP 5.1 ESub ~ TombDoc.mkv (2.92 GB)
Halloween - The Curse of Michael Myers (1995) Producer's Cut 1080p 10bit Bluray x265 HEVC English DDP 5.1 ESub ~ TombDoc.mkv (3.12 GB)
Halloween 4 - The Return of Michael Myers (1988) English 1080p 10bit Bluray x265 HEVC DDP 5.1 ESub ~ TombDoc.mkv (2.87 GB)
Halloween 5 - The Revenge of Michael Myers (1989) English 1080p 10bit Bluray x265 HEVC DDP 5.1 ESub ~ TombDoc.mkv (3.15 GB)
Halloween H20 - 20 Years Later (1998) English 1080p 10bit Bluray x265 HEVC DDP 5.1 ESub ~ TombDoc.mkv (2.81 GB)
Halloween II (1981) English 1080p 10bit Bluray x265 HEVC DDP 5.1 ESub ~ TombDoc.mkv (3 GB)
Halloween III - Season of the Witch (1982) English 1080p 10bit Bluray x265 HEVC DDP 2.0 ESub ~ TombDoc.mkv (3.19 GB)
John Carpenter's Halloween (1978) 35th Anniversary Edition 1080p 10bit Bluray x265 HEVC English DDP 5.1 ESub ~ TombDoc.mkv (2.95 GB)
Rob Zombie's Halloween (2007) Unrated CE 1080p 10bit Bluray x265 HEVC English DDP 5.1 ESub ~ TombDoc.mkv (3.96 GB)
Rob Zombie's Halloween II (2009) Unrated DC 1080p 10bit Bluray x265 HEVC English DDP 5.1 ESubs ~ TombDoc.mkv (3.86 GB)
Description



HE came home for HALLOWEEN...







Halloween - The Complete Collection (1978-2018) 1080p 10bit Bluray x265 HEVC English DDP 5.1 MSubs ~ TombDoc







John Carpenter's Halloween (1978) 35th Anniversary Edition 1080p 10bit Bluray x265 HEVC English DDP 5.1 ESub ~ TombDoc


Code:

Format : Matroska
Format version : Version 4
File size : 2.95 GiB
Duration : 1 h 30 min
Overall bit rate : 4 650 kb/s

Video
ID : 1
Format : HEVC
Format/Info : High Efficiency Video Coding
Format profile : Main [email protected]@Main
Codec ID : V_MPEGH/ISO/HEVC
Duration : 1 h 30 min
Bit rate : 3 999 kb/s
Width : 1 920 pixels
Height : 816 pixels
Display aspect ratio : 2.35:1
Frame rate mode : Constant
Frame rate : 23.976 (24000/1001) FPS
Color space : YUV
Chroma subsampling : 4:2:0
Bit depth : 10 bits
Bits/(Pixel*Frame) : 0.106
Stream size : 2.54 GiB (86%)
Default : Yes
Forced : No

Audio
ID : 2
Format : E-AC-3
Format/Info : Enhanced AC-3
Commercial name : Dolby Digital Plus
Codec ID : A_EAC3
Duration : 1 h 30 min
Bit rate mode : Constant
Bit rate : 640 kb/s
Channel(s) : 6 channels
Channel layout : L R C LFE Ls Rs
Sampling rate : 48.0 kHz
Frame rate : 31.250 FPS (1536 SPF)
Compression mode : Lossy
Stream size : 416 MiB (14%)
Title : English DD+ 5.1 640Kbps ~ TombDoc
Language : English
Service kind : Complete Main
Default : Yes
Forced : Yes

Text
ID : 3
Format : PGS
Muxing mode : zlib
Codec ID : S_HDMV/PGS
Codec ID/Info : Picture based subtitle format used on BDs/HD-DVDs
Duration : 1 h 28 min
Bit rate : 32.6 kb/s
Count of elements : 1891
Stream size : 20.6 MiB (1%)
Title : Eng BD-PGS-SDH
Language : English
Default : Yes
Forced : Yes

Menu
00:00:00.000 : en:Chapter 01
00:07:00.754 : en:Chapter 02
00:11:08.209 : en:Chapter 03
00:19:54.026 : en:Chapter 04
00:28:05.976 : en:Chapter 05
00:34:45.125 : en:Chapter 06
00:44:05.059 : en:Chapter 07
00:54:15.752 : en:Chapter 08
01:00:20.575 : en:Chapter 09
01:09:12.523 : en:Chapter 10
01:19:33.894 : en:Chapter 11
01:28:42.150 : en:Chapter 12






Halloween II (1981) English 1080p 10bit Bluray x265 HEVC DDP 5.1 ESub ~ TombDoc


Code:

Format : Matroska
Format version : Version 4
File size : 3.00 GiB
Duration : 1 h 32 min
Overall bit rate : 4 647 kb/s

Video
ID : 1
Format : HEVC
Format/Info : High Efficiency Video Coding
Format profile : Main [email protected]@Main
Codec ID : V_MPEGH/ISO/HEVC
Duration : 1 h 32 min
Bit rate : 3 996 kb/s
Width : 1 920 pixels
Height : 816 pixels
Display aspect ratio : 2.35:1
Frame rate mode : Constant
Frame rate : 23.976 (24000/1001) FPS
Color space : YUV
Chroma subsampling : 4:2:0
Bit depth : 10 bits
Bits/(Pixel*Frame) : 0.106
Stream size : 2.58 GiB (86%)
Default : Yes
Forced : No
Color range : Limited
Color primaries : BT.709
Transfer characteristics : BT.709
Matrix coefficients : BT.709

Audio
ID : 2
Format : E-AC-3
Format/Info : Enhanced AC-3
Commercial name : Dolby Digital Plus
Codec ID : A_EAC3
Duration : 1 h 32 min
Bit rate mode : Constant
Bit rate : 640 kb/s
Channel(s) : 6 channels
Channel layout : L R C LFE Ls Rs
Sampling rate : 48.0 kHz
Frame rate : 31.250 FPS (1536 SPF)
Compression mode : Lossy
Stream size : 424 MiB (14%)
Title : English DD+ 5.1 640Kbps ~ TombDoc
Language : English
Service kind : Complete Main
Default : Yes
Forced : No

Text
ID : 3
Format : PGS
Muxing mode : zlib
Codec ID : S_HDMV/PGS
Codec ID/Info : Picture based subtitle format used on BDs/HD-DVDs
Duration : 1 h 26 min
Bit rate : 16.8 kb/s
Count of elements : 1468
Stream size : 10.4 MiB (0%)
Title : Eng BD-PGS
Language : English
Default : Yes
Forced : Yes

Menu
00:00:00.000 : en:Chapter 01
00:04:18.675 : en:Chapter 02
00:07:18.355 : en:Chapter 03
00:12:24.744 : en:Chapter 04
00:17:26.045 : en:Chapter 05
00:20:01.200 : en:Chapter 06
00:22:03.322 : en:Chapter 07
00:26:51.610 : en:Chapter 08
00:33:23.001 : en:Chapter 09
00:41:29.487 : en:Chapter 10
00:44:24.662 : en:Chapter 11
00:55:06.303 : en:Chapter 12
00:58:40.225 : en:Chapter 13
01:03:21.798 : en:Chapter 14
01:07:39.347 : en:Chapter 15
01:13:19.395 : en:Chapter 16
01:25:34.588 : en:Chapter 17
01:28:01.109 : en:Chapter 18






Halloween III: Season of the Witch (1982) English 1080p 10bit Bluray x265 HEVC DDP 2.0 ESub ~ TombDoc


Code:

Format : Matroska
Format version : Version 4
File size : 3.19 GiB
Duration : 1 h 38 min
Overall bit rate : 4 653 kb/s

Video
ID : 1
Format : HEVC
Format/Info : High Efficiency Video Coding
Format profile : Main [email protected]@Main
Codec ID : V_MPEGH/ISO/HEVC
Duration : 1 h 38 min
Bit rate : 4 001 kb/s
Width : 1 920 pixels
Height : 816 pixels
Display aspect ratio : 2.35:1
Frame rate mode : Constant
Frame rate : 23.976 (24000/1001) FPS
Color space : YUV
Chroma subsampling : 4:2:0
Bit depth : 10 bits
Bits/(Pixel*Frame) : 0.107
Stream size : 2.74 GiB (86%)
Default : Yes
Forced : No
Color range : Limited
Color primaries : BT.709
Transfer characteristics : BT.709
Matrix coefficients : BT.709

Audio
ID : 2
Format : E-AC-3
Format/Info : Enhanced AC-3
Commercial name : Dolby Digital Plus
Codec ID : A_EAC3
Duration : 1 h 38 min
Bit rate mode : Constant
Bit rate : 640 kb/s
Channel(s) : 2 channels
Channel layout : L R
Sampling rate : 48.0 kHz
Frame rate : 31.250 FPS (1536 SPF)
Compression mode : Lossy
Stream size : 449 MiB (14%)
Title : English DD+ 2.0 640Kbps ~ TombDoc
Language : English
Service kind : Complete Main
Default : Yes
Forced : Yes

Text
ID : 3
Format : PGS
Muxing mode : zlib
Codec ID : S_HDMV/PGS
Codec ID/Info : Picture based subtitle format used on BDs/HD-DVDs
Duration : 1 h 28 min
Bit rate : 19.8 kb/s
Count of elements : 1412
Stream size : 12.5 MiB (0%)
Title : Eng BD-PGS
Language : English
Default : Yes
Forced : Yes

Menu
00:00:00.000 : en:Chapter 01
00:00:01.001 : en:Chapter 02
00:06:29.389 : en:Chapter 03
00:09:03.168 : en:Chapter 04
00:16:17.977 : en:Chapter 05
00:20:50.249 : en:Chapter 06
00:25:57.556 : en:Chapter 07
00:31:30.889 : en:Chapter 08
00:36:26.810 : en:Chapter 09
00:41:10.468 : en:Chapter 10
00:45:30.728 : en:Chapter 11
00:49:40.978 : en:Chapter 12
00:54:24.678 : en:Chapter 13
01:03:06.783 : en:Chapter 14
01:11:13.686 : en:Chapter 15
01:15:18.931 : en:Chapter 16
01:21:10.282 : en:Chapter 17
01:28:24.299 : en:Chapter 18
01:33:14.589 : en:Chapter 19






Halloween 4: The Return of Michael Myers (1988) English 1080p 10bit Bluray x265 HEVC DDP 5.1 ESub ~ TombDoc


Code:

Format : Matroska
Format version : Version 4
File size : 2.87 GiB
Duration : 1 h 28 min
Overall bit rate : 4 654 kb/s

Video
ID : 1
Format : HEVC
Format/Info : High Efficiency Video Coding
Format profile : Main [email protected]@Main
Codec ID : V_MPEGH/ISO/HEVC
Duration : 1 h 28 min
Bit rate : 4 001 kb/s
Width : 1 920 pixels
Height : 1 036 pixels
Display aspect ratio : 1.85:1
Frame rate mode : Constant
Frame rate : 23.976 (24000/1001) FPS
Color space : YUV
Chroma subsampling : 4:2:0
Bit depth : 10 bits
Bits/(Pixel*Frame) : 0.084
Stream size : 2.47 GiB (86%)
Default : Yes
Forced : No

Audio
ID : 2
Format : E-AC-3
Format/Info : Enhanced AC-3
Commercial name : Dolby Digital Plus
Codec ID : A_EAC3
Duration : 1 h 28 min
Bit rate mode : Constant
Bit rate : 640 kb/s
Channel(s) : 6 channels
Channel layout : L R C LFE Ls Rs
Sampling rate : 48.0 kHz
Frame rate : 31.250 FPS (1536 SPF)
Compression mode : Lossy
Stream size : 404 MiB (14%)
Title : English DD+ 5.1 640Kbps ~ TombDoc
Language : English
Service kind : Complete Main
Default : Yes
Forced : Yes

Text
ID : 3
Format : PGS
Muxing mode : zlib
Codec ID : S_HDMV/PGS
Codec ID/Info : Picture based subtitle format used on BDs/HD-DVDs
Duration : 1 h 24 min
Bit rate : 39.8 kb/s
Count of elements : 1892
Stream size : 24.1 MiB (1%)
Title : Eng BD-PGS-SDH
Language : English
Default : Yes
Forced : Yes

Menu
00:00:00.000 : en:Chapter 01
00:06:48.908 : en:Chapter 02
00:11:38.531 : en:Chapter 03
00:22:43.362 : en:Chapter 04
00:29:12.501 : en:Chapter 05
00:34:36.700 : en:Chapter 06
00:42:46.689 : en:Chapter 07
00:51:35.926 : en:Chapter 08
00:57:58.350 : en:Chapter 09
01:04:42.170 : en:Chapter 10
01:15:32.737 : en:Chapter 11
01:24:50.294 : en:Chapter 12






Halloween 5: The Revenge of Michael Myers (1989) English 1080p 10bit Bluray x265 HEVC DDP 5.1 ESub ~ TombDoc


Code:

Format : Matroska
Format version : Version 4
File size : 3.15 GiB
Duration : 1 h 37 min
Overall bit rate : 4 650 kb/s

Video
ID : 1
Format : HEVC
Format/Info : High Efficiency Video Coding
Format profile : Main [email protected]@Main
Codec ID : V_MPEGH/ISO/HEVC
Duration : 1 h 37 min
Bit rate : 3 999 kb/s
Width : 1 920 pixels
Height : 1 036 pixels
Display aspect ratio : 1.85:1
Frame rate mode : Constant
Frame rate : 23.976 (24000/1001) FPS
Color space : YUV
Chroma subsampling : 4:2:0
Bit depth : 10 bits
Bits/(Pixel*Frame) : 0.084
Stream size : 2.71 GiB (86%)
Default : Yes
Forced : No

Audio
ID : 2
Format : E-AC-3
Format/Info : Enhanced AC-3
Commercial name : Dolby Digital Plus
Codec ID : A_EAC3
Duration : 1 h 37 min
Bit rate mode : Constant
Bit rate : 640 kb/s
Channel(s) : 6 channels
Channel layout : L R C LFE Ls Rs
Sampling rate : 48.0 kHz
Frame rate : 31.250 FPS (1536 SPF)
Compression mode : Lossy
Stream size : 444 MiB (14%)
Title : English DD+ 5.1 640Kbps ~ TombDoc
Language : English
Service kind : Complete Main
Default : Yes
Forced : Yes

Text
ID : 3
Format : PGS
Muxing mode : zlib
Codec ID : S_HDMV/PGS
Codec ID/Info : Picture based subtitle format used on BDs/HD-DVDs
Duration : 1 h 33 min
Bit rate : 32.4 kb/s
Count of elements : 2120
Stream size : 21.7 MiB (1%)
Title : Eng BD-PGS-SDH
Language : English
Default : Yes
Forced : Yes

Menu
00:00:00.000 : en:Chapter 01
00:10:04.729 : en:Chapter 02
00:17:47.400 : en:Chapter 03
00:28:08.353 : en:Chapter 04
00:35:36.051 : en:Chapter 05
00:45:55.962 : en:Chapter 06
00:51:55.654 : en:Chapter 07
01:00:13.401 : en:Chapter 08
01:10:19.257 : en:Chapter 09
01:20:04.008 : en:Chapter 10
01:24:38.991 : en:Chapter 11
01:33:49.249 : en:Chapter 12






Halloween: The Curse of Michael Myers (1995) Producer's Cut 1080p 10bit Bluray x265 HEVC English DDP 5.1 ESub ~ TombDoc


Code:

Format : Matroska
Format version : Version 4
File size : 3.12 GiB
Duration : 1 h 35 min
Overall bit rate : 4 656 kb/s

Video
ID : 1
Format : HEVC
Format/Info : High Efficiency Video Coding
Format profile : Main [email protected]@Main
Codec ID : V_MPEGH/ISO/HEVC
Duration : 1 h 35 min
Bit rate : 3 998 kb/s
Width : 1 920 pixels
Height : 1 080 pixels
Display aspect ratio : 16:9
Frame rate mode : Constant
Frame rate : 23.976 (24000/1001) FPS
Color space : YUV
Chroma subsampling : 4:2:0
Bit depth : 10 bits
Bits/(Pixel*Frame) : 0.080
Stream size : 2.68 GiB (86%)
Default : Yes
Forced : No

Audio
ID : 2
Format : E-AC-3
Format/Info : Enhanced AC-3
Commercial name : Dolby Digital Plus
Codec ID : A_EAC3
Duration : 1 h 35 min
Bit rate mode : Constant
Bit rate : 640 kb/s
Channel(s) : 6 channels
Channel layout : L R C LFE Ls Rs
Sampling rate : 48.0 kHz
Frame rate : 31.250 FPS (1536 SPF)
Compression mode : Lossy
Stream size : 439 MiB (14%)
Title : English DD+ 5.1 640Kbps ~ TombDoc
Language : English
Service kind : Complete Main
Default : Yes
Forced : Yes

Text
ID : 3
Format : PGS
Muxing mode : zlib
Codec ID : S_HDMV/PGS
Codec ID/Info : Picture based subtitle format used on BDs/HD-DVDs
Duration : 1 h 31 min
Bit rate : 27.4 kb/s
Count of elements : 1860
Stream size : 18.0 MiB (1%)
Title : Eng BD-PGS-SDH
Language : English
Default : Yes
Forced : Yes

Menu
00:00:00.000 : en:Chapter 01
00:09:00.540 : en:Chapter 02
00:15:22.922 : en:Chapter 03
00:23:24.403 : en:Chapter 04
00:31:44.319 : en:Chapter 05
00:39:47.885 : en:Chapter 06
00:47:32.058 : en:Chapter 07
00:56:18.375 : en:Chapter 08
01:05:22.627 : en:Chapter 09
01:14:16.869 : en:Chapter 10
01:20:56.310 : en:Chapter 11
01:28:18.543 : en:Chapter 12






Halloween H20: 20 Years Later (1998) English 1080p 10bit Bluray x265 HEVC DDP 5.1 ESub ~ TombDoc


Code:

Format : Matroska
Format version : Version 4
File size : 2.81 GiB
Duration : 1 h 26 min
Overall bit rate : 4 656 kb/s

Video
ID : 1
Format : HEVC
Format/Info : High Efficiency Video Coding
Format profile : Main [email protected]@Main
Codec ID : V_MPEGH/ISO/HEVC
Duration : 1 h 26 min
Bit rate : 4 000 kb/s
Width : 1 920 pixels
Height : 820 pixels
Display aspect ratio : 2.35:1
Frame rate mode : Constant
Frame rate : 23.976 (24000/1001) FPS
Color space : YUV
Chroma subsampling : 4:2:0
Bit depth : 10 bits
Bits/(Pixel*Frame) : 0.106
Stream size : 2.41 GiB (86%)
Default : Yes
Forced : No

Audio
ID : 2
Format : E-AC-3
Format/Info : Enhanced AC-3
Commercial name : Dolby Digital Plus
Codec ID : A_EAC3
Duration : 1 h 26 min
Bit rate mode : Constant
Bit rate : 640 kb/s
Channel(s) : 6 channels
Channel layout : L R C LFE Ls Rs
Sampling rate : 48.0 kHz
Frame rate : 31.250 FPS (1536 SPF)
Compression mode : Lossy
Stream size : 395 MiB (14%)
Title : English DD+ 5.1 640Kbps ~ TombDoc
Language : English
Service kind : Complete Main
Default : Yes
Forced : Yes

Text
ID : 3
Format : PGS
Muxing mode : zlib
Codec ID : S_HDMV/PGS
Codec ID/Info : Picture based subtitle format used on BDs/HD-DVDs
Duration : 1 h 24 min
Bit rate : 23.0 kb/s
Count of elements : 1502
Stream size : 14.0 MiB (0%)
Title : Eng BD-PGS-SDH
Language : English
Default : Yes
Forced : Yes

Menu
00:00:00.000 : en:Chapter 01
00:09:31.196 : en:Chapter 02
00:15:29.929 : en:Chapter 03
00:23:36.415 : en:Chapter 04
00:30:56.605 : en:Chapter 05
00:36:08.249 : en:Chapter 06
00:43:16.594 : en:Chapter 07
00:51:29.003 : en:Chapter 08
01:00:30.669 : en:Chapter 09
01:09:40.259 : en:Chapter 10
01:15:17.513 : en:Chapter 11
01:18:21.739 : en:Chapter 12






Halloween: Resurrection (2002) English 1080p 10bit Bluray x265 HEVC DDP 5.1 ESub ~ TombDoc


Code:

Format : Matroska
Format version : Version 4
File size : 2.92 GiB
Duration : 1 h 29 min
Overall bit rate : 4 657 kb/s

Video
ID : 1
Format : HEVC
Format/Info : High Efficiency Video Coding
Format profile : Main [email protected]@Main
Codec ID : V_MPEGH/ISO/HEVC
Duration : 1 h 29 min
Bit rate : 4 001 kb/s
Width : 1 920 pixels
Height : 816 pixels
Display aspect ratio : 2.35:1
Frame rate mode : Constant
Frame rate : 23.976 (24000/1001) FPS
Color space : YUV
Chroma subsampling : 4:2:0
Bit depth : 10 bits
Bits/(Pixel*Frame) : 0.107
Stream size : 2.51 GiB (86%)
Default : Yes
Forced : No

Audio
ID : 2
Format : E-AC-3
Format/Info : Enhanced AC-3
Commercial name : Dolby Digital Plus
Codec ID : A_EAC3
Duration : 1 h 29 min
Bit rate mode : Constant
Bit rate : 640 kb/s
Channel(s) : 6 channels
Channel layout : L R C LFE Ls Rs
Sampling rate : 48.0 kHz
Frame rate : 31.250 FPS (1536 SPF)
Compression mode : Lossy
Stream size : 411 MiB (14%)
Title : English DD+ 5.1 640Kbps ~ TombDoc
Language : English
Service kind : Complete Main
Default : Yes
Forced : Yes

Text
ID : 3
Format : PGS
Muxing mode : zlib
Codec ID : S_HDMV/PGS
Codec ID/Info : Picture based subtitle format used on BDs/HD-DVDs
Duration : 1 h 22 min
Bit rate : 26.3 kb/s
Count of elements : 1844
Stream size : 15.6 MiB (1%)
Title : Eng BD-PGS
Language : English
Default : Yes
Forced : Yes

Menu
00:00:00.000 : en:Chapter 01
00:10:28.628 : en:Chapter 02
00:16:58.059 : en:Chapter 03
00:21:50.893 : en:Chapter 04
00:28:36.173 : en:Chapter 05
00:37:01.469 : en:Chapter 06
00:47:03.863 : en:Chapter 07
00:56:26.758 : en:Chapter 08
01:02:54.854 : en:Chapter 09
01:10:18.923 : en:Chapter 10
01:18:01.427 : en:Chapter 11
01:24:15.008 : en:Chapter 12






Rob Zombie's Halloween (2007) Unrated CE 1080p 10bit Bluray x265 HEVC English DDP 5.1 ESub ~ TombDoc


Code:

Format : Matroska
Format version : Version 4
File size : 3.96 GiB
Duration : 2 h 1 min
Overall bit rate : 4 668 kb/s

Video
ID : 1
Format : HEVC
Format/Info : High Efficiency Video Coding
Format profile : Main [email protected]@Main
Codec ID : V_MPEGH/ISO/HEVC
Duration : 2 h 1 min
Bit rate : 3 996 kb/s
Width : 1 920 pixels
Height : 800 pixels
Display aspect ratio : 2.40:1
Frame rate mode : Constant
Frame rate : 23.976 (24000/1001) FPS
Color space : YUV
Chroma subsampling : 4:2:0
Bit depth : 10 bits
Bits/(Pixel*Frame) : 0.109
Stream size : 3.39 GiB (86%)
Default : Yes
Forced : No
Color range : Limited
Color primaries : BT.709
Transfer characteristics : BT.709
Matrix coefficients : BT.709

Audio
ID : 2
Format : E-AC-3
Format/Info : Enhanced AC-3
Commercial name : Dolby Digital Plus
Codec ID : A_EAC3
Duration : 2 h 1 min
Bit rate mode : Constant
Bit rate : 640 kb/s
Channel(s) : 6 channels
Channel layout : L R C LFE Ls Rs
Sampling rate : 48.0 kHz
Frame rate : 31.250 FPS (1536 SPF)
Compression mode : Lossy
Stream size : 556 MiB (14%)
Title : English DD+ 5.1 640Kbps ~ TombDoc
Language : English
Service kind : Complete Main
Default : Yes
Forced : Yes

Text
ID : 3
Format : PGS
Muxing mode : zlib
Codec ID : S_HDMV/PGS
Codec ID/Info : Picture based subtitle format used on BDs/HD-DVDs
Duration : 2 h 0 min
Bit rate : 49.9 kb/s
Count of elements : 3206
Stream size : 43.0 MiB (1%)
Title : Eng BD-PGS-SDH
Language : English
Default : Yes
Forced : Yes

Menu
00:00:00.000 : en:Chapter 01
00:04:27.684 : en:Chapter 02
00:11:52.128 : en:Chapter 03
00:15:55.830 : en:Chapter 04
00:19:50.439 : en:Chapter 05
00:23:58.979 : en:Chapter 06
00:26:43.936 : en:Chapter 07
00:32:33.827 : en:Chapter 08
00:38:40.235 : en:Chapter 09
00:43:08.461 : en:Chapter 10
00:49:41.729 : en:Chapter 11
00:54:00.154 : en:Chapter 12
01:01:16.214 : en:Chapter 13
01:07:43.810 : en:Chapter 14
01:13:35.578 : en:Chapter 15
01:17:01.492 : en:Chapter 16
01:22:36.493 : en:Chapter 17
01:28:59.000 : en:Chapter 18
01:33:41.825 : en:Chapter 19
01:37:32.972 : en:Chapter 20
01:42:16.088 : en:Chapter 21
01:45:06.050 : en:Chapter 22
01:50:28.372 : en:Chapter 23
01:55:17.452 : en:Chapter 24






Rob Zombie's Halloween II (2009) Unrated DC 1080p 10bit Bluray x265 HEVC English DDP 5.1 ESubs ~ TombDoc


Code:

Format : Matroska
Format version : Version 4
File size : 3.86 GiB
Duration : 1 h 59 min
Overall bit rate : 4 638 kb/s

Video
ID : 1
Format : HEVC
Format/Info : High Efficiency Video Coding
Format profile : Main [email protected]@Main
Codec ID : V_MPEGH/ISO/HEVC
Duration : 1 h 59 min
Bit rate : 3 976 kb/s
Width : 1 920 pixels
Height : 1 036 pixels
Display aspect ratio : 1.85:1
Frame rate mode : Constant
Frame rate : 23.976 (24000/1001) FPS
Color space : YUV
Chroma subsampling : 4:2:0
Bit depth : 10 bits
Bits/(Pixel*Frame) : 0.083
Stream size : 3.31 GiB (86%)
Default : Yes
Forced : No

Audio
ID : 2
Format : E-AC-3
Format/Info : Enhanced AC-3
Commercial name : Dolby Digital Plus
Codec ID : A_EAC3
Duration : 1 h 59 min
Bit rate mode : Constant
Bit rate : 640 kb/s
Channel(s) : 6 channels
Channel layout : L R C LFE Ls Rs
Sampling rate : 48.0 kHz
Frame rate : 31.250 FPS (1536 SPF)
Compression mode : Lossy
Stream size : 545 MiB (14%)
Title : English DD+ 5.1 640Kbps ~ TombDoc
Language : English
Service kind : Complete Main
Default : Yes
Forced : Yes

Text #1
ID : 3
Format : PGS
Muxing mode : zlib
Codec ID : S_HDMV/PGS
Codec ID/Info : Picture based subtitle format used on BDs/HD-DVDs
Duration : 1 h 46 min
Bit rate : 30.3 kb/s
Count of elements : 2479
Stream size : 23.2 MiB (1%)
Title : Eng BD-PGS
Language : English
Default : Yes
Forced : Yes

Text #2
ID : 4
Format : PGS
Muxing mode : zlib
Codec ID : S_HDMV/PGS
Codec ID/Info : Picture based subtitle format used on BDs/HD-DVDs
Duration : 1 h 47 min
Bit rate : 24.8 kb/s
Count of elements : 2930
Stream size : 19.1 MiB (0%)
Title : Eng BD-PGS-SDH
Language : English
Default : No
Forced : No

Menu
00:00:00.000 : en:Chapter 01
00:05:52.519 : en:Chapter 02
00:11:27.562 : en:Chapter 03
00:16:30.406 : en:Chapter 04
00:25:52.217 : en:Chapter 05
00:34:52.132 : en:Chapter 06
00:42:37.180 : en:Chapter 07
00:53:43.470 : en:Chapter 08
01:03:28.263 : en:Chapter 09
01:10:44.699 : en:Chapter 10
01:16:52.942 : en:Chapter 11
01:22:09.758 : en:Chapter 12
01:27:23.321 : en:Chapter 13
01:31:12.717 : en:Chapter 14
01:34:38.006 : en:Chapter 15
01:41:47.226 : en:Chapter 16






Halloween (2018) English 1080p 10bit Bluray x265 HEVC DDP 5.1 MSubs ~ TombDoc


Code:

Format : Matroska
Format version : Version 4
File size : 3.45 GiB
Duration : 1 h 45 min
Overall bit rate : 4 664 kb/s

Video
ID : 1
Format : HEVC
Format/Info : High Efficiency Video Coding
Format profile : Main [email protected]@Main
Codec ID : V_MPEGH/ISO/HEVC
Duration : 1 h 45 min
Bit rate : 4 001 kb/s
Width : 1 920 pixels
Height : 804 pixels
Display aspect ratio : 2.40:1
Frame rate mode : Constant
Frame rate : 23.976 (24000/1001) FPS
Color space : YUV
Chroma subsampling : 4:2:0
Bit depth : 10 bits
Bits/(Pixel*Frame) : 0.108
Stream size : 2.96 GiB (86%)
Default : Yes
Forced : No

Audio
ID : 2
Format : E-AC-3
Format/Info : Enhanced AC-3
Commercial name : Dolby Digital Plus
Codec ID : A_EAC3
Duration : 1 h 45 min
Bit rate mode : Constant
Bit rate : 640 kb/s
Channel(s) : 6 channels
Channel layout : L R C LFE Ls Rs
Sampling rate : 48.0 kHz
Frame rate : 31.250 FPS (1536 SPF)
Compression mode : Lossy
Stream size : 484 MiB (14%)
Title : English DD+ 5.1 640Kbps ~ TombDoc
Language : English
Service kind : Complete Main
Default : Yes
Forced : Yes

Text #1
ID : 3
Format : PGS
Muxing mode : zlib
Codec ID : S_HDMV/PGS
Codec ID/Info : Picture based subtitle format used on BDs/HD-DVDs
Duration : 1 h 44 min
Bit rate : 24.6 kb/s
Count of elements : 2334
Stream size : 18.4 MiB (1%)
Title : Hindi BD-PGS
Language : Hindi
Default : Yes
Forced : Yes

Text #2
ID : 4
Format : PGS
Muxing mode : zlib
Codec ID : S_HDMV/PGS
Codec ID/Info : Picture based subtitle format used on BDs/HD-DVDs
Duration : 1 h 44 min
Bit rate : 42.8 kb/s
Count of elements : 3064
Stream size : 32.0 MiB (1%)
Title : Eng BD-PGS-SDH
Language : English
Default : No
Forced : No

Menu
00:00:00.000 : en:Chapter 01
00:08:42.522 : en:Chapter 02
00:14:26.949 : en:Chapter 03
00:20:46.996 : en:Chapter 04
00:23:17.855 : en:Chapter 05
00:27:45.080 : en:Chapter 06
00:32:55.724 : en:Chapter 07
00:40:51.366 : en:Chapter 08
00:44:41.053 : en:Chapter 09
00:48:26.403 : en:Chapter 10
00:53:26.453 : en:Chapter 11
00:59:18.597 : en:Chapter 12
01:03:22.340 : en:Chapter 13
01:07:29.629 : en:Chapter 14
01:14:46.524 : en:Chapter 15
01:18:10.561 : en:Chapter 16
01:22:04.837 : en:Chapter 17
01:30:09.904 : en:Chapter 18
01:35:33.394 : en:Chapter 19
01:40:41.494 : en:Chapter 20



Code:

Source: From Shout Factory Exclusive
-Halloween The Complete Collection 1978-2009 Exclusive Limited Deluxe Edition 15DiSC 1080p Blu-ray AVC DTS-HD MA 5.1/7.1-NOGROUP
-Halloween 2018 1080p EUR Blu-ray AVC DTS-HD MA 7.1-CzC
Note: In this Halloween collection, Halloween I,II (1978-1981) Part 1, 2 & Halloween H20: 20 Years Later (1998) Part 7 is Available in Hindi VCD Original. But I am not providing these 3 parts in Hindi because the most parts in this series are in English. So I don't think it is necessary to give only 3 parts in Hindi. And it's better to watch the whole series in English.
And in this collection, there were missing the subtitles of 2 BDs PART 2 & 3 but I Extracted the subtitles from the other 2 NEW Shout Factory BDs and Synced them with the videos properly.
#EnjOyY THE RARE Collection



Related Downloads
DLDownload NameAgeTypeFilesSizeSELE
About Magnet Links
Magnet links are easy to use if you have a good BitTorrent client. We recommend using uTorrent because it has full support for these links. Just click on the magnet link of your choice, and your browser should automatically open up your default torrent client and start downloading. It's that easy. For more information and help downloading please view our Help Downloading page.
Share Download
Direct Link

HTML Link

Forum Link
Download Searches